#TITLE:Beat It;
#SUBTITLE:;
#ARTIST:Micheal Jackson;
#TITLETRANSLIT:;
#SUBTITLETRANSLIT:;
#ARTISTTRANSLIT:;
#CREDIT:;
#BANNER:;
#BACKGROUND:;
#LYRICSPATH:;
#CDTITLE:;
#MUSIC:20061213123656247.mp3;
#OFFSET:1.700;
#SAMPLESTART:100.000;
#SAMPLELENGTH:11.920;
#SELECTABLE:YES;
#BPMS:0.000=135.000,4.000=137.000,8.000=141.000,16.000=143.000,20.000=137.000,24.000=140.000,28.000=138.000,32.000=139.000,92.000=138.000,100.000=139.000,156.000=138.000,160.000=139.000,332.000=138.000,344.000=139.000,488.000=138.000,500.000=139.000;
#STOPS:;
#BGCHANGES:;
// cache tags:
#FIRSTBEAT:59.500;
#LASTBEAT:594.000;
#SONGFILENAME:Songs/nhac/Beat It/20061213123656247.sm;
#HASMUSIC:1;
#HASBANNER:0;
#MUSICLENGTH:258.115;
// end cache tags

//---------------pump-single - ----------------
#NOTES:
     pump-single:
     :
     Challenge:
     13:
     0.529,1.000,0.170,0.527,0.463,775.000,44.000,136.000,0.000,0.000:
00000
00000
00000
00000
,
00000
00000
00000
00000
,
00000
00000
00000
00000
,
00000
00000
00000
00000
,
00000
00000
00000
00000
,
00000
00000
00000
00000
,
00000
00000
00000
00000
,
00000
00000
00000
00000
,
00000
00000
00000
00000
,
00000
00000
00000
00000
,
00000
00000
00000
00000
,
00000
00000
00000
00000
,
00000
00000
00000
00000
,
00000
00000
00000
00000
,
00000
00000
00000
00000
00000
00000
00000
20000
,
30000
00000
00000
01000
00000
00000
00100
00000
00000
00001
00000
00000
00020
00000
00000
00000
00000
00000
00030
00000
00000
00010
00002
00000
,
00000
00003
00000
00010
00000
00000
00100
00000
00000
00000
00000
00000
00100
00000
00000
00000
00000
00000
00000
00000
00000
20000
00000
00000
,
30000
00000
00000
00000
00000
00000
01000
00000
00000
00000
00000
00000
00100
00000
00000
00000
00000
00000
00001
00000
00000
00000
00000
00000
00020
00000
00000
00000
00000
00000
00000
00000
00000
00000
00000
00000
00000
00000
00000
00030
00000
00000
00010
00000
00002
00000
00000
00000
,
00000
00000
00003
00000
00000
00000
00010
00000
00000
00000
00000
00000
00100
00000
00000
00000
00000
00000
00000
00000
00000
00000
00000
00000
00000
00000
00000
00000
00000
00000
00000
00000
00000
00000
00000
00000
00000
00000
00000
00000
00000
00000
00010
00000
00000
00010
00000
00000
,
00010
00010
00010
00010
00011
00000
00010
00010
00011
00000
00110
00000
00000
00000
00110
00100
,
01100
00000
00110
00100
01100
00000
01000
00000
02200
00000
00000
00000
00000
00000
03300
00000
,
00000
00000
00010
00010
00011
00000
00010
00010
00011
00000
00110
00000
00000
00000
00110
00100
,
01100
00000
00110
00100
01100
00000
00110
02200
00000
00000
00000
00000
00000
00000
03300
00000
,
00000
00010
00010
00000
00010
00000
00000
00100
,
00100
00100
00000
00000
,
00000
00010
00010
00000
00010
00000
00000
00100
,
00100
00100
00000
00000
,
00000
01000
01000
00000
01000
00000
00000
00100
,
00100
00100
00000
00000
,
00000
00010
00010
00000
00010
00000
00000
00100
,
00100
00100
00000
00000
,
00000
00010
00010
00000
00010
00000
00000
00100
,
00100
00100
00000
00000
,
00000
00010
00010
00000
00010
00000
00000
00100
,
00100
00100
00000
00000
,
00000
01000
01000
00000
01000
00000
00000
00100
,
00100
00100
00000
00000
,
00000
00010
00010
00000
00010
00000
00000
00100
,
00100
00100
00000
00000
,
10000
00000
00000
01000
00000
00000
00100
00000
00000
00001
00000
00000
00020
00000
00000
00000
00000
00000
00030
00000
00000
00010
00002
00000
,
00000
00003
00000
00010
00000
00000
00100
00000
00000
00000
00000
00000
00100
00000
00000
00000
00000
00000
00000
00000
00000
20000
00000
00000
,
30000
00000
00000
00000
00000
00000
01000
00000
00000
00000
00000
00000
00100
00000
00000
00000
00000
00000
00001
00000
00000
00000
00000
00000
00020
00000
00000
00000
00000
00000
00000
00000
00000
00000
00000
00000
00000
00000
00000
00030
00000
00000
00010
00000
00002
00000
00000
00000
,
00000
00003
00000
00010
00000
00000
00100
00000
00000
00000
00000
00000
00000
00000
00000
00000
00000
00000
00000
00000
00000
20000
00000
00000
,
30000
00000
00000
01000
00000
00000
00100
00000
00000
00001
00000
00000
00020
00000
00000
00000
00000
00000
00030
00000
00000
00010
00002
00000
,
00000
00003
00000
00010
00000
00000
00100
00000
00000
00000
00000
00000
00100
00000
00000
00000
00000
00000
00000
00000
00000
20000
00000
00000
,
30000
00000
00000
00000
00000
00000
01000
00000
00000
00000
00000
00000
00100
00000
00000
00000
00000
00000
00001
00000
00000
00000
00000
00000
00020
00000
00000
00000
00000
00000
00000
00000
00000
00000
00000
00000
00000
00000
00000
00030
00000
00000
00010
00000
00002
00000
00000
00000
,
00000
00003
00000
00010
00000
00000
00100
00000
00000
00000
00000
00000
00000
00000
00000
00000
00000
00000
00000
00000
00000
20000
00000
00000
,
30000
00000
00000
01000
00000
00000
00100
00000
00000
00001
00000
00000
00020
00000
00000
00000
00000
00000
00030
00000
00000
00010
00002
00000
,
00000
00003
00000
00010
00000
00000
00100
00000
00000
00000
00000
00000
00100
00000
00000
00000
00000
00000
00000
00000
00000
20000
00000
00000
,
30000
00000
00000
00000
00000
00000
01000
00000
00000
00000
00000
00000
00100
00000
00000
00000
00000
00000
00001
00000
00000
00000
00000
00000
00020
00000
00000
00000
00000
00000
00000
00000
00000
00000
00000
00000
00000
00000
00000
00030
00000
00000
00010
00000
00002
00000
00000
00000
,
00000
00003
00000
00010
00000
00000
00100
00000
00000
00000
00000
00000
00000
00000
00000
00000
00000
00000
00000
00000
00000
00000
00000
00000
,
00000
00010
00010
00000
00010
00000
00000
00100
,
00100
00100
00000
00000
,
00000
00010
00010
00000
00010
00000
00000
00100
,
00100
00100
00000
00000
,
00000
01000
01000
00000
01000
00000
00000
00100
,
00100
00100
00000
00000
,
00000
00010
00010
00000
00010
00000
00000
00100
,
00100
00100
00000
00000
,
00000
00010
00010
00000
00010
00000
00000
00100
,
00100
00100
00000
00000
,
00000
00010
00010
00000
00010
00000
00000
00100
,
00100
00100
00000
00000
,
00000
01000
01000
00000
01000
00000
00000
00100
,
00100
00100
00000
00000
,
00000
00010
00010
00000
00010
00000
00000
00100
,
00100
00000
00100
00000
00000
00000
00000
20000
,
30000
00000
00000
01000
00000
00000
00100
00000
00000
00001
00000
00000
00020
00000
00000
00000
00000
00000
00030
00000
00000
00010
00002
00000
,
00000
00003
00000
00010
00000
00000
00100
00000
00000
00000
00000
00000
00100
00000
00000
00000
00000
00000
00000
00000
00000
20000
00000
00000
,
30000
00000
00000
00000
00000
00000
01000
00000
00000
00000
00000
00000
00100
00000
00000
00000
00000
00000
00001
00000
00000
00000
00000
00000
00020
00000
00000
00000
00000
00000
00000
00000
00000
00000
00000
00000
00000
00000
00000
00030
00000
00000
00010
00000
00002
00000
00000
00000
,
00000
00003
00000
00010
00000
00000
00100
00000
00000
00000
00000
00000
00000
00000
00000
00000
00000
00000
00000
00000
00000
20000
00000
00000
,
30000
00000
00000
01000
00000
00000
00100
00000
00000
00001
00000
00000
00020
00000
00000
00000
00000
00000
00030
00000
00000
00010
00002
00000
,
00000
00003
00000
00010
00000
00000
00100
00000
00000
00000
00000
00000
00100
00000
00000
00000
00000
00000
00000
00000
00000
20000
00000
00000
,
30000
00000
00000
00000
00000
00000
01000
00000
00000
00000
00000
00000
00100
00000
00000
00000
00000
00000
00001
00000
00000
00000
00000
00000
00020
00000
00000
00000
00000
00000
00000
00000
00000
00000
00000
00000
00000
00000
00000
00030
00000
00000
00010
00000
00002
00000
00000
00000
,
00000
00003
00000
00010
00000
00000
00100
00000
00000
00000
00000
00000
00000
00000
00000
00000
00000
00000
00000
00000
00000
20000
00000
00000
,
30000
00000
00000
01000
00000
00000
00100
00000
00000
00001
00000
00000
00020
00000
00000
00000
00000
00000
00030
00000
00000
00010
00002
00000
,
00000
00003
00000
00010
00000
00000
00100
00000
00000
00000
00000
00000
00100
00000
00000
00000
00000
00000
00000
00000
00000
20000
00000
00000
,
30000
00000
00000
00000
00000
00000
01000
00000
00000
00000
00000
00000
00100
00000
00000
00000
00000
00000
00001
00000
00000
00000
00000
00000
00020
00000
00000
00000
00000
00000
00000
00000
00000
00000
00000
00000
00000
00000
00000
00030
00000
00000
00010
00000
00002
00000
00000
00000
,
00000
00003
00000
00010
00000
00000
00100
00000
00000
00000
00000
00000
00000
00000
00000
00000
00000
00000
00000
00000
00000
20000
00000
00000
,
30000
00000
00000
01000
00000
00000
00100
00000
00000
00001
00000
00000
00020
00000
00000
00000
00000
00000
00030
00000
00000
00010
00002
00000
,
00000
00003
00000
00010
00000
00000
00100
00000
00000
00000
00000
00000
00100
00000
00000
00000
00000
00000
00000
00000
00000
20000
00000
00000
,
30000
00000
00000
00000
00000
00000
01000
00000
00000
00000
00000
00000
00100
00000
00000
00000
00000
00000
00001
00000
00000
00000
00000
00000
00020
00000
00000
00000
00000
00000
00000
00000
00000
00000
00000
00000
00000
00000
00000
00030
00000
00000
00010
00000
00002
00000
00000
00000
,
00000
00003
00000
00010
00000
00000
00100
00000
00000
00000
00000
00000
00000
00000
00000
00000
00000
00000
00000
00000
00000
00000
00000
00000
,
00000
00010
00010
00000
00010
00000
00000
00010
,
00010
00010
00000
00000
,
00000
00010
00010
00000
00010
00000
00000
00010
,
00010
00010
00000
00000
,
00000
00010
00010
00000
00010
00000
00000
00010
,
00010
00010
00000
00000
,
00000
00010
00010
00000
00010
00000
00000
00010
,
00010
00010
00000
00000
,
00000
00000
00010
00010
00011
00000
00010
00010
00011
00000
00220
00000
00000
00330
00010
00010
,
00011
00000
00010
00010
00011
00000
00220
00000
00000
00000
00330
00000
00000
00000
00000
00000
,
00000
00000
00010
00010
00011
00000
00010
00010
00011
00000
00220
00000
00000
00330
00010
00010
,
00011
00000
00010
00010
00011
00000
00220
00000
00000
00000
00330
00000
00000
00000
00000
00000
,
00000
00000
00010
00010
00011
00000
00010
00010
00011
00000
00220
00000
00000
00330
00010
00010
,
00011
00000
00010
00010
00011
00000
00220
00000
00000
00000
00330
00000
00000
00000
00000
00000
,
00000
00000
00010
00010
00011
00000
00010
00010
00011
00000
00220
00000
00000
00330
00010
00010
,
00011
00000
00000
00000
00000
00000
00010
00000
00000
00010
00000
00000
00011
00000
00000
00000
00000
00000
00110
00000
00000
00000
00000
00000
10000
00000
00000
01000
00000
00000
00100
00000
00000
00010
00000
00000
01000
00000
00000
00100
00000
00000
00020
00000
00000
00000
00030
00000
,
00002
00000
00000
00000
00000
00000
00000
00000
00000
00000
00000
00000
00000
00000
00000
00000
00000
00000
00000
00000
00000
00000
00000
00000
00003
00000
00000
00000
00000
00000
10000
00000
00000
01000
00000
00000
00200
00000
00000
00000
00300
00000
00010
00000
00000
00200
00000
00000
,
00000
00300
10000
00000
01000
10000
01000
10000
00000
00000
01100
00000
00010
00100
00010
00100
,
00010
00000
00000
00100
00000
00000
01000
00000
10000
00000
00010
00000
10000
00000
00100
00000
00010
00000
10000
00000
00100
00000
00010
00000
00100
00000
00000
01000
00000
00000
10000
00000
00100
00000
00000
00010
00000
00100
00000
01000
00000
10000
00000
00100
00000
00010
00000
00100
,
00000
00000
00000
00000
01000
00000
00000
00000
00000
00000
00000
00000
10000
00000
00000
00000
00000
00000
00000
00000
00000
00000
00000
00000
00100
00000
00000
00000
00010
00000
00000
00000
00100
00000
00000
00000
00000
00000
00000
00000
00000
00000
00000
00000
01000
00000
00000
00000
00000
00000
00000
00000
10000
00000
00000
00000
00000
00000
00000
00000
00100
00000
00000
00000
00000
00000
00010
00000
00000
00000
00000
00000
00100
00000
00000
00000
00000
00000
00000
00000
00000
00000
00000
00000
01000
00000
00000
00000
00000
00000
00000
00000
00000
10000
00000
00000
00000
00000
00000
00000
00000
00000
01000
00000
00000
00000
00000
00000
00000
00000
00000
00000
00000
00000
00000
00000
00000
01000
00000
00000
00000
00000
00000
00100
00000
00000
00000
00000
00000
00000
00000
00000
00000
00000
00000
00000
00000
00000
00000
00000
00000
00000
00000
00000
02000
00000
00000
00000
00000
00000
00000
00000
00000
00000
00000
00000
00000
00000
00000
00000
00000
00000
00000
00000
00000
00000
00000
00000
00000
00000
00000
00000
00000
00000
00000
00000
00000
00000
00000
00000
03000
00000
00000
00000
00000
00000
00000
00000
00000
00000
00000
00000
,
00010
00000
00000
00000
00000
00000
00000
00000
00000
00000
00000
00000
00000
00000
00000
00000
00000
00000
00000
00000
00000
00000
00000
00000
00000
00000
00000
00000
00000
00000
00000
00000
00000
00000
00000
00000
00000
00000
00000
00000
00000
00000
00000
00000
00000
00000
00000
00000
10000
00000
00000
00000
00000
00000
00000
00000
01000
00000
00000
00000
00000
00000
00000
00000
00010
00000
00000
00000
00000
00000
00000
00000
00001
00000
00000
00000
00000
00000
00000
00000
00100
00000
00000
00000
00000
00000
00000
00000
00001
00000
00000
00000
00000
00000
00000
00000
00000
00000
00000
00000
00010
00000
00000
00000
00000
00000
00000
00000
00000
00000
00000
00000
00100
00000
00000
00000
00000
00010
00000
00000
00000
00000
00000
00000
00000
00000
00000
00000
00100
00000
00000
00000
00000
00000
00000
00000
00010
00000
00000
00000
00000
00000
00000
00000
01000
00000
00000
00000
00000
00000
00000
00000
10000
00000
00000
00000
00000
00000
00000
00000
01000
00000
00000
00000
00000
00000
00000
00000
00000
00000
00000
00100
00000
00000
00000
00000
00000
00000
00000
00000
00010
00000
00000
00000
00000
00000
00000
00000
01000
00000
00000
00000
,
00000
00000
00000
00000
10000
00000
00000
00000
00000
00000
00000
00000
01000
00000
00000
00000
00000
00000
00000
00000
00100
00000
00000
00000
00000
00000
00000
00000
00010
00000
00000
00000
00000
00000
00000
00000
01000
00000
00000
00000
00000
00000
10000
00000
00000
00000
00000
00000
00100
00000
00000
00000
00000
00000
00000
00000
00000
00000
00000
00000
10100
00000
00000
00000
00000
00000
00000
00000
00000
00000
00000
00000
00200
00000
00000
00000
00000
00000
00000
00000
00000
00000
00000
00000
00000
00000
00000
00000
00000
00000
00300
00000
00000
00000
00000
00000
01000
00000
00000
00000
00000
00000
00000
00000
00000
00000
00000
00000
10000
00000
00000
00000
00000
00000
00000
00000
00000
00000
00000
00000
00010
00000
00000
00000
00000
00000
00000
00000
00000
00000
00000
00000
00000
00000
00000
00000
00000
00000
00000
00000
00000
00000
00000
00000
00010
00000
00000
00000
00000
00000
00000
00000
00000
00000
00000
00000
00000
00000
00000
00000
00100
00000
00000
00000
00000
00000
00000
00000
00000
00000
00000
00000
00000
00000
00000
00000
01000
00000
00000
00000
00000
00000
00000
00000
00100
00000
00000
00000
00000
00000
00000
00000
,
00100
00010
00000
00000
00000
00000
01000
00000
00100
00000
00000
00000
01000
00000
10000
00000
01000
00000
00200
00000
00000
00000
00000
00000
00000
00000
00000
00000
00300
00000
00010
00000
00100
00000
01000
00000
00200
00000
00000
00300
00000
00000
02000
00000
00000
03000
00000
00000
,
20000
00000
00000
30000
00000
00000
00100
00000
00000
00000
00000
00000
00100
00020
00000
00000
00000
00000
00030
00000
00100
00000
10000
00000
00000
00100
00000
00000
00000
10000
00000
00100
00000
01000
00000
00000
02000
00000
00000
00000
00000
00000
00000
00000
00000
00000
00000
00000
,
00000
00000
00000
03000
00000
00000
00200
00000
00000
00000
00000
00000
00300
00000
00000
00000
01000
00000
10000
00000
01000
00000
00000
00000
00100
00000
00000
00000
01000
00000
10000
00000
01000
00000
00000
00000
00200
00000
00000
00000
00000
00000
00000
00000
00000
00000
00300
00000
,
01000
00000
00000
00000
00000
00000
00000
00000
00000
00000
00000
00000
00000
00000
00000
00000
00100
00000
00000
00000
00000
00000
00000
00000
02000
00000
00000
00000
00000
00000
00000
00000
00000
00000
00000
00000
00000
00000
00000
00000
03000
00000
00000
00000
00000
00000
00000
00000
00100
00000
00000
00000
00000
00000
00000
00000
01000
00000
00000
00000
00000
00000
00000
00000
00000
00000
00000
00000
00000
00000
00000
00000
00000
00000
00000
00000
00000
00000
00000
00000
10000
00000
00000
00000
00000
00000
00000
00000
00000
00000
00000
00000
00000
00000
00000
00000
01000
00000
00000
00000
00000
00000
00200
00000
00000
00000
00000
00000
00000
00000
00000
00000
00000
00000
00000
00000
00000
00000
00000
00000
00000
00000
00000
00000
00000
00000
00000
00000
00000
00000
00000
00000
00000
00000
00000
00000
00000
00000
00300
00000
00000
00000
00000
00000
01000
00000
00000
00000
00000
00000
00200
00000
00000
00000
00000
00000
00000
00000
00000
00000
00000
00000
00000
00000
00000
00000
00000
00000
00000
00000
00000
00000
00000
00000
00300
00000
00000
00000
00000
00000
00000
00000
00000
00000
10000
00000
00000
00000
00000
00000
00000
00000
,
00000
00000
00000
00000
10000
00000
00100
00000
00010
00000
00000
00000
00100
00010
00000
00000
00010
00000
00000
00000
00010
00002
00000
00000
00000
00000
00000
00000
00003
00000
00010
00000
,
00100
00000
00000
01000
00000
00000
00000
00000
00000
10000
00000
00000
01000
00000
00200
00000
00000
00000
00000
00000
00000
00000
00000
00000
00000
00000
00000
00000
00000
00000
00000
00000
00300
00000
00000
00000
10000
00000
00000
00000
01000
00000
10000
00000
00000
00100
00000
00000
,
00001
00000
00000
00000
00000
00000
00000
00000
01000
00000
00000
00000
00000
00000
00000
00000
00100
00000
00000
00000
00000
00000
00000
00000
10000
00000
00000
00000
00000
00000
00000
00000
00000
00000
00000
00000
00000
00000
00000
00000
00000
00000
00000
00000
00000
00000
00000
00000
00100
00000
00000
00000
00000
00000
00000
00000
00000
00000
00000
00000
00000
00000
00000
00000
00001
00000
00000
00000
00000
00000
00000
00000
01000
00000
00000
00000
00000
00000
00100
00000
00000
00000
00000
00000
01000
00000
00000
00000
00000
00000
10000
00000
00000
00000
00000
00000
01000
00000
00000
00100
00000
00000
00000
00000
00010
00000
00000
00000
00000
00000
00000
00000
00001
00000
00000
00000
00000
00000
00000
00000
00010
00000
00000
00000
00000
00000
00000
00000
01000
00000
00000
00000
00000
00000
00000
00000
00100
00000
00000
00000
00000
00000
00000
00000
00001
00000
00000
00000
00000
00000
10000
00000
00000
00000
00000
00000
00010
00000
00000
00000
00000
00000
00000
00000
00100
00000
00000
00000
00000
00000
00000
00000
01000
00000
00000
00000
00000
00000
00000
00000
00010
00000
00000
00000
00000
00000
00001
00000
00000
00000
00000
00000
,
10000
00000
00000
00000
00000
00000
00000
00000
00000
00000
00000
00000
00000
00000
00000
00000
00000
00000
00001
00000
00000
00000
00000
00000
10000
00000
00000
00000
00000
00000
00000
00000
00000
00000
00000
00000
00000
00000
00000
00001
00000
00000
00000
00000
00000
20000
00000
00000
00000
00000
00000
00000
00000
00000
00000
00000
00000
00000
00000
00000
00000
00000
00000
00000
00000
00000
00000
00000
00000
00000
00000
00000
00000
00000
00000
00000
00000
00000
30000
00000
00000
00000
00000
00000
00000
00000
00000
00000
01000
00000
00000
00000
00000
00000
00000
00000
00000
00000
00000
00000
10000
00000
00000
00000
00000
00000
00000
00000
00000
00000
00000
00000
01000
00000
00000
00000
00000
00000
00000
00000
00000
00000
00000
00000
01100
00000
00000
00000
00000
00000
00000
00000
00000
00000
00000
00000
00000
00000
00000
00000
00000
00000
00000
00000
00200
00000
00000
00000
00000
00000
00000
00000
00000
00000
00000
00000
00000
00000
00000
00000
00000
00000
00000
00000
00000
00000
00000
00000
00000
00000
00000
00000
00000
00000
00000
00000
00000
00000
00000
00000
00000
00000
00000
00000
00000
00000
00000
00000
00000
00000
00000
00000
,
00000
00000
00000
00000
00000
00000
00000
00000
00000
00000
00000
00000
00000
00000
00000
00000
00000
00000
00000
00000
00000
00000
00000
00000
00000
00000
00000
00000
00000
00000
00000
00000
00000
00000
00000
00000
00000
00000
00000
00000
00000
00000
00300
00000
00000
00000
00000
00000
10000
00000
00000
00000
00000
00000
00000
00000
00000
00000
00000
00000
01000
00000
00000
00000
00000
00000
00000
00000
01000
00000
00000
00000
00000
00000
00000
00000
01000
00000
00000
00000
00000
00000
00000
00000
01000
00000
00000
00000
00000
00000
01000
00000
00000
00000
00000
00000
01000
00000
00000
00000
00000
00000
00100
00000
00000
00000
00000
00000
00100
00000
00000
00000
00000
00000
00000
00000
00100
00000
00000
00000
00000
00000
00000
00000
00100
00000
00000
00000
00000
00000
00000
00000
00100
00000
00000
00000
00000
00000
00100
00000
00000
00000
00000
00000
00100
00000
00000
00000
00000
00000
00000
00000
00100
00000
00000
00000
00000
00000
00000
00000
00100
00000
00000
00000
00000
00000
00000
00000
00010
00000
00000
00000
00000
00000
00000
00000
00000
00010
00000
00000
00000
00000
00000
00010
00000
00000
00000
00000
00000
00010
00000
00000
,
00000
00000
00000
00000
00010
00000
00000
00000
00000
00000
00000
00000
00010
00000
00000
00000
00000
00000
00000
00000
00000
00010
00000
00000
00000
00000
00000
00010
00000
00000
00000
00000
00000
00010
00000
00000
00000
00000
00000
00010
00000
00000
00000
00000
00000
00010
00000
00000
00000
00000
00000
00000
00001
00000
00000
00000
00000
00001
00000
00000
00000
00000
00000
00001
00000
00000
00000
00000
00001
00000
00000
00000
00000
00000
00000
00000
00001
00000
00000
00000
00000
00000
00000
00000
00001
00000
00000
00000
00000
00000
00000
00000
00001
00000
00000
00000
00000
00000
00000
00000
00001
00000
00000
00000
00000
00000
00000
00000
00001
00000
00000
00000
00000
00000
00001
00000
00000
00000
00000
00000
00001
00000
00000
00000
00000
00000
00000
00000
00001
00000
00000
00000
00000
00000
00000
00000
00001
00000
00000
00000
00000
00000
00000
00000
00001
00000
00000
00000
00000
00000
00001
00000
00000
00000
00000
00000
00001
00000
00000
00000
00000
00000
00001
00000
00000
00000
00000
00000
00001
00000
00000
00000
00000
00000
00000
00000
00001
00000
00000
00000
00000
00000
00000
00000
00001
00000
00000
00000
00000
00000
00000
00000
,
00001
00000
00000
00000
00000
00000
00000
00000
00000
00001
00000
00000
00000
00000
00000
00001
00000
00000
00000
00000
00000
00001
00000
00000
00000
00000
00000
00000
00000
00000
00001
00000
00000
00000
00000
00000
00001
00000
00000
00000
00000
00000
00000
00000
00001
00000
00000
00000
00000
00000
00000
00000
00001
00000
00000
00000
00000
00000
00000
00000
00001
00000
00000
00000
00000
00000
00000
00000
00001
00000
00000
00000
00000
00000
00000
00000
00001
00000
00000
00000
00000
00000
00000
00000
00001
00000
00000
00000
00000
00000
00000
00000
00001
00000
00000
00000
00000
00000
00000
00000
00001
00000
00000
00000
00000
00000
00000
00000
00001
00000
00000
00000
00000
00000
00000
00000
00001
00000
00000
00000
00000
00000
00000
00000
00001
00000
00000
00000
00000
00000
00000
00000
00002
00000
00000
00000
00000
00000
00000
00000
00000
00000
00000
00000
00000
00000
00000
00000
00000
00000
00000
00000
00000
00000
00000
00000
00000
00000
00000
00000
00000
00000
00000
00000
00000
00000
00000
00000
00000
00000
00000
00000
00000
00000
00000
00000
00000
00000
00000
00000
00000
00000
00000
00000
00000
00000
00000
00000
00000
00000
00000
00000
,
00000
00000
00000
00003
00000
00000
00001
00000
00000
00010
00000
00100
00000
01000
00000
20000
00000
00000
00000
00000
00000
00000
00000
00000
00000
00000
00000
00000
00000
00000
00000
00000
00000
00000
00000
00000
30000
00000
00000
00000
00000
00000
20000
00000
00000
00000
00000
00000
,
30000
00000
00000
01000
00000
00000
00100
00000
00000
00001
00000
00000
00020
00000
00000
00000
00000
00000
00030
00000
00000
00010
00002
00000
,
00000
00003
00000
00010
00000
00000
00100
00000
00000
00000
00000
00000
00000
00000
00000
00000
00000
00000
00000
00000
00000
20000
00000
00000
,
30000
00000
00000
00000
00000
00000
01000
00000
00000
00000
00000
00000
00100
00000
00000
00000
00000
00000
00001
00000
00000
00000
00000
00000
00020
00000
00000
00000
00000
00000
00000
00000
00000
00000
00000
00000
00000
00000
00000
00030
00000
00000
00010
00000
00002
00000
00000
00000
,
00000
00003
00000
00010
00000
00000
00100
00000
00000
00000
00000
00000
00100
00000
00000
00000
00000
00000
00000
00000
00000
20000
00000
00000
,
30000
00000
00000
01000
00000
00000
00100
00000
00000
00001
00000
00000
00020
00000
00000
00000
00000
00000
00030
00000
00000
00010
00002
00000
,
00000
00003
00000
00010
00000
00000
00100
00000
00000
00000
00000
00000
00000
00000
00000
00000
00000
00000
00000
00000
00000
20000
00000
00000
,
30000
00000
00000
00000
00000
00000
01000
00000
00000
00000
00000
00000
00100
00000
00000
00000
00000
00000
00001
00000
00000
00000
00000
00000
00020
00000
00000
00000
00000
00000
00000
00000
00000
00000
00000
00000
00000
00000
00000
00030
00000
00000
00010
00000
00002
00000
00000
00000
,
00000
00003
00000
00010
00000
00000
00100
00000
00000
00000
00000
00000
00100
00000
00000
00000
00000
00000
00000
00000
00000
20000
00000
00000
,
30000
00000
00000
01000
00000
00000
00100
00000
00000
00001
00000
00000
00020
00000
00000
00000
00000
00000
00030
00000
00000
00010
00002
00000
,
00000
00003
00000
00010
00000
00000
00100
00000
00000
00000
00000
00000
00000
00000
00000
00000
00000
00000
00000
00000
00000
20000
00000
00000
,
30000
00000
00000
00000
00000
00000
01000
00000
00000
00000
00000
00000
00100
00000
00000
00000
00000
00000
00001
00000
00000
00000
00000
00000
00020
00000
00000
00000
00000
00000
00000
00000
00000
00000
00000
00000
00000
00000
00000
00030
00000
00000
00010
00000
00002
00000
00000
00000
,
00000
00003
00000
00010
00000
00000
00100
00000
00000
00000
00000
00000
00100
00000
00000
00000
00000
00000
00000
00000
00000
20000
00000
00000
,
30000
00000
00000
01000
00000
00000
00100
00000
00000
00001
00000
00000
00020
00000
00000
00000
00000
00000
00030
00000
00000
00010
00002
00000
,
00000
00003
00000
00010
00000
00000
00100
00000
00000
00000
00000
00000
00000
00000
00000
00000
00000
00000
00000
00000
00000
20000
00000
00000
,
30000
00000
00000
00000
00000
00000
01000
00000
00000
00000
00000
00000
00100
00000
00000
00000
00000
00000
00001
00000
00000
00000
00000
00000
00020
00000
00000
00000
00000
00000
00000
00000
00000
00000
00000
00000
00000
00000
00000
00030
00000
00000
00010
00000
00002
00000
00000
00000
,
00000
00003
00000
00010
00000
00000
00100
00000
00000
00000
00000
00000
00100
00000
00000
00000
00000
00000
00000
00000
00000
20000
00000
00000
,
30000
00000
00000
01000
00000
00000
00100
00000
00000
00001
00000
00000
00020
00000
00000
00000
00000
00000
00030
00000
00000
00010
00002
00000
,
00000
00003
00000
00010
00000
00000
00100
00000
00000
00000
00000
00000
00000
00000
00000
00000
00000
00000
00000
00000
00000
20000
00000
00000
,
30000
00000
00000
00000
00000
00000
01000
00000
00000
00000
00000
00000
00100
00000
00000
00000
00000
00000
00001
00000
00000
00000
00000
00000
00020
00000
00000
00000
00000
00000
00000
00000
00000
00000
00000
00000
00000
00000
00000
00030
00000
00000
00010
00000
00002
00000
00000
00000
,
00000
00003
00000
00010
00000
00000
00100
00000
00000
00000
00000
00000
00100
00000
00000
00000
00000
00000
00000
00000
00000
20000
00000
00000
,
30000
00000
00000
01000
00000
00000
00100
00000
00000
00001
00000
00000
00020
00000
00000
00000
00000
00000
00030
00000
00000
00010
00002
00000
,
00000
00003
00000
00010
00000
00000
00100
00000
00000
00000
00000
00000
00000
00000
00000
00000
00000
00000
00000
00000
00000
20000
00000
00000
,
30000
00000
00000
00000
00000
00000
01000
00000
00000
00000
00000
00000
00100
00000
00000
00000
00000
00000
00001
00000
00000
00000
00000
00000
00020
00000
00000
00000
00000
00000
00000
00000
00000
00000
00000
00000
00000
00000
00000
00030
00000
00000
00010
00000
00002
00000
00000
00000
,
00000
00003
00000
00010
00000
00000
00100
00000
00000
00000
00000
00000
00100
00000
00000
00000
00000
00000
00000
00000
00000
20000
00000
00000
,
30000
00000
00000
01000
00000
00000
00100
00000
00000
00001
00000
00000
00020
00000
00000
00000
00000
00000
00030
00000
00000
00010
00002
00000
,
00000
00003
00000
00010
00000
00000
00100
00000
00000
00000
00000
00000
00000
00000
00000
00000
00000
00000
00000
00000
00000
20000
00000
00000
,
30000
00000
00000
00000
00000
00000
01000
00000
00000
00000
00000
00000
00100
00000
00000
00000
00000
00000
00001
00000
00000
00000
00000
00000
00020
00000
00000
00000
00000
00000
00000
00000
00000
00000
00000
00000
00000
00000
00000
00030
00000
00000
00010
00000
00002
00000
00000
00000
,
00000
00003
00000
00010
00000
00000
00100
00000
00000
00000
00000
00000
00100
00000
00000
00000
00000
00000
00000
00000
00000
20000
00000
00000
,
30000
00000
00000
01000
00000
00000
00100
00000
00000
00001
00000
00000
00020
00000
00000
00000
00000
00000
00030
00000
00000
00010
00002
00000
,
00000
00003
00000
00010
00000
00000
00100
00000
00000
00000
00000
00000
00000
00000
00000
00000
00000
00000
00000
00000
00000
20000
00000
00000
,
30000
00000
00000
00000
00000
00000
01000
00000
00000
00000
00000
00000
00100
00000
00000
00000
00000
00000
00001
00000
00000
00000
00000
00000
00020
00000
00000
00000
00000
00000
00000
00000
00000
00000
00000
00000
00000
00000
00000
00030
00000
00000
00010
00000
00002
00000
00000
00000
,
00000
00003
00000
00010
00000
00000
00100
00000
00000
00000
00000
00000
00100
00000
00000
00000
00000
00000
00000
00000
00000
00000
00000
00000
;

//---------------pump-single - ----------------
#NOTES:
     pump-single:
     :
     Hard:
     12:
     0.443,0.805,0.163,0.531,0.159,621.000,42.000,137.000,0.000,0.000:
00000
00000
00000
00000
,
00000
00000
00000
00000
,
00000
00000
00000
00000
,
00000
00000
00000
00000
,
00000
00000
00000
00000
,
00000
00000
00000
00000
,
00000
00000
00000
00000
,
00000
00000
00000
00000
,
00000
00000
00000
00000
,
00000
00000
00000
00000
,
00000
00000
00000
00000
,
00000
00000
00000
00000
,
00000
00000
00000
00000
,
00000
00000
00000
00000
,
00000
00000
00000
00000
00000
00000
00000
20000
,
30000
01000
00100
00001
00020
00000
00030
00002
,
00000
00003
00000
00010
00000
00000
00100
00000
00000
00000
00000
00000
00100
00000
00000
00000
00000
00000
00000
00000
00000
20000
00000
00000
,
30000
01000
00100
00001
00020
00000
00030
00002
,
00000
00003
00000
00010
00000
00000
00100
00000
00000
00000
00000
00000
00000
00000
00000
00000
00000
00000
00000
00000
00000
00010
00000
00000
,
00010
00010
00011
00010
00011
00110
00000
00110
,
01100
00000
00110
00000
02200
00000
00000
03300
02200
00000
00000
00000
00000
00000
03300
00000
,
00000
00010
00011
00010
00011
00110
00000
00110
,
01100
00000
00110
00000
01100
00000
00010
02200
00000
00000
00000
00000
00000
00000
03300
00000
,
00000
00100
00100
00000
00100
00000
00000
01000
,
01000
01000
00000
00000
,
00000
00100
00100
00000
00100
00000
00000
01000
,
01000
01000
00000
00000
,
00000
10000
10000
00000
10000
00000
00000
01000
,
01000
01000
00000
00000
,
00000
00100
00100
00000
00100
00000
00000
01000
,
01000
01000
00000
00000
,
00000
00100
00100
00000
00100
00000
00000
01000
,
01000
01000
00000
00000
,
00000
00100
00100
00000
00100
00000
00000
01000
,
01000
01000
00000
00000
,
00000
10000
10000
00000
10000
00000
00000
01000
,
01000
01000
00000
00000
,
00000
00100
00100
00000
00100
00000
00000
01000
,
01000
01000
00000
00000
,
00000
01000
00100
00001
00020
00000
00030
00002
,
00000
00003
00000
00010
00000
00000
00100
00000
00000
00000
00000
00000
00100
00000
00000
00000
00000
00000
00000
00000
00000
20000
00000
00000
,
30000
01000
00100
00001
00020
00000
00030
00002
,
00000
00003
00000
00010
00000
00000
00100
00000
00000
00000
00000
00000
00000
00000
00000
00000
00000
00000
00000
00000
00000
20000
00000
00000
,
30000
01000
00100
00001
00020
00000
00030
00002
,
00000
00003
00000
00010
00000
00000
00100
00000
00000
00000
00000
00000
00100
00000
00000
00000
00000
00000
00000
00000
00000
20000
00000
00000
,
30000
01000
00100
00001
00020
00000
00030
00002
,
00000
00003
00000
00010
00000
00000
00100
00000
00000
00000
00000
00000
00000
00000
00000
00000
00000
00000
00000
00000
00000
20000
00000
00000
,
30000
01000
00100
00001
00020
00000
00030
00002
,
00000
00003
00000
00010
00000
00000
00100
00000
00000
00000
00000
00000
00100
00000
00000
00000
00000
00000
00000
00000
00000
20000
00000
00000
,
30000
01000
00100
00001
00020
00000
00030
00002
,
00000
00003
00000
00010
00000
00000
00100
00000
00000
00000
00000
00000
00000
00000
00000
00000
00000
00000
00000
00000
00000
00000
00000
00000
,
00000
00100
00100
00000
00100
00000
00000
01000
,
01000
01000
00000
00000
,
00000
00100
00100
00000
00100
00000
00000
01000
,
01000
01000
00000
00000
,
00000
10000
10000
00000
10000
00000
00000
01000
,
01000
01000
00000
00000
,
00000
00100
00100
00000
00100
00000
00000
01000
,
01000
01000
00000
00000
,
00000
00100
00100
00000
00100
00000
00000
01000
,
01000
01000
00000
00000
,
00000
00100
00100
00000
00100
00000
00000
01000
,
01000
01000
00000
00000
,
00000
10000
10000
00000
10000
00000
00000
01000
,
01000
01000
00000
00000
,
00000
00100
00100
00000
00100
00000
00000
01000
,
01000
00000
01000
00000
00000
00000
00000
20000
,
30000
01000
00100
00001
00020
00000
00030
00002
,
00000
00003
00000
00010
00000
00000
00100
00000
00000
00000
00000
00000
00100
00000
00000
00000
00000
00000
00000
00000
00000
20000
00000
00000
,
30000
01000
00100
00001
00020
00000
00030
00002
,
00000
00003
00000
00010
00000
00000
00100
00000
00000
00000
00000
00000
00000
00000
00000
00000
00000
00000
00000
00000
00000
20000
00000
00000
,
30000
01000
00100
00001
00020
00000
00030
00002
,
00000
00003
00000
00010
00000
00000
00100
00000
00000
00000
00000
00000
00100
00000
00000
00000
00000
00000
00000
00000
00000
20000
00000
00000
,
30000
01000
00100
00001
00020
00000
00030
00002
,
00000
00003
00000
00010
00000
00000
00100
00000
00000
00000
00000
00000
00000
00000
00000
00000
00000
00000
00000
00000
00000
20000
00000
00000
,
30000
01000
00100
00001
00020
00000
00030
00002
,
00000
00003
00000
00010
00000
00000
00100
00000
00000
00000
00000
00000
00100
00000
00000
00000
00000
00000
00000
00000
00000
20000
00000
00000
,
30000
01000
00100
00001
00020
00000
00030
00002
,
00000
00003
00000
00010
00000
00000
00100
00000
00000
00000
00000
00000
00000
00000
00000
00000
00000
00000
00000
00000
00000
20000
00000
00000
,
30000
01000
00100
00001
00020
00000
00030
00002
,
00000
00003
00000
00010
00000
00000
00100
00000
00000
00000
00000
00000
00100
00000
00000
00000
00000
00000
00000
00000
00000
20000
00000
00000
,
30000
01000
00100
00001
00020
00000
00030
00002
,
00000
00003
00000
00010
00000
00000
00100
00000
00000
00000
00000
00000
00000
00000
00000
00000
00000
00000
00000
00000
00000
00000
00000
00000
,
00000
00100
00100
00000
00100
00000
00000
00100
,
00100
00100
00000
00000
,
00000
00100
00100
00000
00100
00000
00000
00100
,
00100
00100
00000
00000
,
00000
00100
00100
00000
00100
00000
00000
00100
,
00100
00100
00000
00000
,
00000
00100
00100
00000
00100
00000
00000
00100
,
00100
00100
00000
00000
,
00000
00000
00010
00000
00011
00000
00010
00000
00011
00000
00220
00000
00000
00330
00010
00000
,
00011
00010
00011
00220
00000
00330
00000
00000
,
00000
00000
00010
00000
00011
00000
00010
00000
00011
00000
00220
00000
00000
00330
00010
00000
,
00011
00010
00011
00220
00000
00330
00000
00000
,
00000
00000
00010
00000
00011
00000
00010
00000
00011
00000
00220
00000
00000
00330
00010
00000
,
00011
00010
00011
00220
00000
00330
00000
00000
,
00000
00000
00010
00000
00011
00000
00010
00000
00011
00000
00220
00000
00000
00330
00010
00000
,
00011
00000
00000
00010
00000
00000
00011
00000
00000
00110
00000
00000
10000
00000
00000
01000
00000
00000
00100
00000
00000
00020
00000
00030
,
00002
00000
00000
00000
00000
00000
00000
00000
00000
00000
00000
00000
00003
00000
00000
01000
00000
00000
00200
00000
00300
00200
00000
00000
,
00000
00300
10000
00000
01000
00000
01000
00000
00000
00000
01100
00000
00010
00000
00010
00000
,
00010
00000
00000
00000
00000
00000
00000
00000
00000
00000
00000
00000
10000
00000
00000
00010
00000
00000
10000
00000
00000
00010
00000
00000
00100
00000
00000
01000
00000
00000
10000
00000
00000
00000
00000
00010
00000
00100
00000
01000
00000
10000
00000
00000
00000
00010
00000
00100
,
00000
00000
00000
00000
01000
00000
00000
00000
00000
00000
00000
00000
10000
00000
00000
00000
00000
00000
00000
00000
00000
00000
00000
00000
00000
00000
00000
00000
00010
00000
00000
00000
00000
00000
00000
00000
00000
00000
00000
00000
00000
00000
00000
00000
01000
00000
00000
00000
00000
00000
00000
00000
10000
00000
00000
00000
00000
00000
00000
00000
00000
00000
00000
00000
00000
00000
00000
00000
00000
00000
00000
00000
00100
00000
00000
00000
00000
00000
00000
00000
00000
00000
00000
00000
10000
00000
00000
00000
00000
00000
00000
00000
00000
00000
00000
00000
00000
00000
00000
00000
00000
00000
01000
00000
00000
00000
00000
00000
00000
00000
00000
00000
00000
00000
00000
00000
00000
00000
00000
00000
00000
00000
00000
00100
00000
00000
00000
00000
00000
00000
00000
00000
00000
00000
00000
00000
00000
00000
00000
00000
00000
00000
00000
00000
02000
00000
00000
00000
00000
00000
00000
00000
00000
00000
00000
00000
00000
00000
00000
00000
00000
00000
00000
00000
00000
00000
00000
00000
00000
00000
00000
00000
00000
00000
00000
00000
00000
00000
00000
00000
03000
00000
00000
00000
00000
00000
00000
00000
00000
00000
00000
00000
,
00100
00000
00000
00000
00000
00000
00000
00000
00000
00000
00000
00000
00000
00000
00000
00000
00000
00000
00000
00000
00000
00000
00000
00000
00000
00000
00000
00000
00000
00000
00000
00000
00000
00000
00000
00000
00000
00000
00000
00000
00000
00000
00000
00000
00000
00000
00000
00000
10000
00000
00000
00000
00000
00000
00000
00000
00000
00000
00000
00000
00010
00000
00000
00000
00000
00000
00000
00000
00000
00000
00000
00000
00001
00000
00000
00000
00000
00000
00000
00000
00000
00000
00000
00000
00000
00000
00000
00000
00001
00000
00000
00000
00000
00000
00000
00000
00000
00000
00000
00000
00010
00000
00000
00000
00000
00000
00000
00000
00000
00000
00000
00000
00000
00000
00000
00000
00000
00010
00000
00000
00000
00000
00000
00000
00000
00000
00000
00000
00000
00000
00000
00000
00000
00000
00000
00000
00010
00000
00000
00000
00000
00000
00000
00000
00000
00000
00000
00000
00000
00000
00000
00000
00000
00000
00000
00000
00000
00000
00000
00000
01000
00000
00000
00000
00000
00000
00000
00000
00000
00000
00000
00100
00000
00000
00000
00000
00000
00000
00000
00000
00010
00000
00000
00000
00000
00000
00000
00000
00100
00000
00000
00000
,
00000
00000
00000
00000
00000
00000
00000
00000
00000
00000
00000
00000
01000
00000
00000
00000
00000
00000
00000
00000
00100
00000
00000
00000
00000
00000
00000
00000
00010
00000
00000
00000
00000
00000
00000
00000
01000
00000
00000
00000
00000
00000
00000
00000
00000
00000
00000
00000
00100
00000
00000
00000
00000
00000
00000
00000
00000
00000
00000
00000
10000
00000
00000
00000
00000
00000
00000
00000
00000
00000
00000
00000
00200
00000
00000
00000
00000
00000
00000
00000
00000
00000
00000
00000
00000
00000
00000
00000
00000
00000
00300
00000
00000
00000
00000
00000
00000
00000
00000
00000
00000
00000
00000
00000
00000
00000
00000
00000
10000
00000
00000
00000
00000
00000
00000
00000
00000
00000
00000
00000
00010
00000
00000
00000
00000
00000
00000
00000
00000
00000
00000
00000
00000
00000
00000
00000
00000
00000
00000
00000
00000
00000
00000
00000
00010
00000
00000
00000
00000
00000
00000
00000
00000
00000
00000
00000
00000
00000
00000
00000
00100
00000
00000
00000
00000
00000
00000
00000
00000
00000
00000
00000
00000
00000
00000
00000
01000
00000
00000
00000
00000
00000
00000
00000
00100
00000
00000
00000
00000
00000
00000
00000
,
00010
00000
00000
00000
00000
00000
00100
00000
00000
00000
00000
00000
01000
00000
00000
10000
00000
00000
00200
00000
00000
00000
00000
00000
00000
00000
00000
00000
00300
00000
00010
00000
00000
01000
00000
00000
00200
00000
00000
00000
00000
00000
00000
00000
00000
00300
00000
00000
,
20000
00000
00000
30000
00000
00000
00100
00000
00000
00000
00000
00000
00020
00000
00000
00000
00000
00000
00030
00000
00100
00000
00000
00000
00000
00100
00000
00000
00000
00000
00000
00100
00000
02000
00000
00000
00000
00000
00000
00000
00000
00000
00000
00000
00000
00000
00000
00000
,
00000
00000
00000
03000
00000
00000
00200
00000
00000
00000
00000
00000
00300
00000
00000
00000
00000
00000
10000
00000
00000
00000
00000
00000
00100
00000
00000
00000
00000
00000
10000
00000
00000
00000
00000
00000
00200
00000
00000
00000
00000
00000
00000
00000
00000
00000
00300
00000
,
01000
00000
00000
00000
00000
00000
00000
00000
00000
00000
00000
00000
00000
00000
00000
00000
00000
00000
00000
00000
00000
00000
00000
00000
02000
00000
00000
00000
00000
00000
00000
00000
00000
00000
00000
00000
00000
00000
00000
00000
03000
00000
00000
00000
00000
00000
00000
00000
01000
00000
00000
00000
00000
00000
00000
00000
00000
00000
00000
00000
00000
00000
00000
00000
00000
00000
00000
00000
00000
00000
00000
00000
00000
00000
00000
00000
00000
00000
00000
00000
10000
00000
00000
00000
00000
00000
00000
00000
00000
00000
00000
00000
00000
00000
00000
00000
00200
00000
00000
00000
00000
00000
00000
00000
00000
00000
00000
00000
00000
00000
00000
00000
00000
00000
00000
00000
00000
00000
00000
00000
00000
00000
00000
00000
00000
00000
00000
00000
00000
00000
00000
00000
00000
00000
00000
00000
00000
00000
00300
00000
00000
00000
00000
00000
00000
00000
00000
00000
00000
00000
00200
00000
00000
00000
00000
00000
00000
00000
00000
00000
00000
00000
00000
00000
00000
00000
00000
00000
00000
00000
00000
00000
00000
00000
00300
00000
00000
00000
00000
00000
00000
00000
00000
00000
10000
00000
00000
00000
00000
00000
00000
00000
,
00000
00000
10000
00000
00010
00000
00010
00000
00010
00000
00002
00000
00000
00000
00003
00010
,
00000
00000
00000
01000
00000
00000
00000
00000
00000
10000
00000
00000
00200
00000
00000
00000
00000
00000
00000
00000
00000
00000
00000
00000
00000
00000
00000
00000
00000
00000
00000
00000
00300
00000
00000
00000
10000
00000
00000
00000
01000
00000
10000
00000
00000
00100
00000
00000
,
00001
00000
00000
00100
00000
00000
10000
00000
00000
00000
00000
00000
00100
00000
00000
00000
00001
00000
01000
00000
00000
01000
00000
00000
01000
00000
00000
00000
00001
00000
00010
00000
01000
00000
00000
00000
00001
00000
00000
00010
00000
00100
00000
01000
00000
00000
00000
00000
,
00100
00000
00000
00000
00000
00000
00000
00000
00000
00000
00000
00000
00000
00000
00000
00000
00000
00000
00000
00000
00000
00000
00000
00000
00100
00000
00000
00000
00000
00000
00000
00000
00000
00000
00000
00000
00000
00000
00000
00000
00000
00000
00000
00000
00000
00200
00000
00000
00000
00000
00000
00000
00000
00000
00000
00000
00000
00000
00000
00000
00000
00000
00000
00000
00000
00000
00000
00000
00000
00000
00000
00000
00000
00000
00000
00000
00000
00000
00000
00000
00300
00000
00000
00000
00000
00000
00000
00000
01000
00000
00000
00000
00000
00000
00000
00000
00000
00000
00000
00000
00000
00000
00000
00000
00000
10000
00000
00000
00000
00000
00000
00000
00000
00000
00000
00000
00000
00000
00000
00000
00000
00000
00000
00000
01100
00000
00000
00000
00000
00000
00000
00000
00000
00000
00000
00000
00000
00000
00000
00000
00000
00000
00000
00000
00200
00000
00000
00000
00000
00000
00000
00000
00000
00000
00000
00000
00000
00000
00000
00000
00000
00000
00000
00000
00000
00000
00000
00000
00000
00000
00000
00000
00000
00000
00000
00000
00000
00000
00000
00000
00000
00000
00000
00000
00000
00000
00000
00000
00000
00000
00000
00000
,
00000
00000
00000
00000
00000
00000
00000
00300
10000
00000
10000
00000
10000
00000
10000
00000
10000
00000
01000
00000
01000
00000
01000
00000
01000
00000
01000
00000
00100
00000
00100
00000
,
00100
00100
00100
00100
00010
00010
00010
00010
00010
00010
00001
00001
00001
00001
00001
00001
,
00001
00001
00001
00001
00001
00001
00001
00001
00001
00001
00001
00002
00000
00000
00000
00000
,
00000
00003
00001
00000
20000
00000
00000
00000
00000
00000
00000
00000
30000
00000
20000
00000
,
30000
01000
00100
00001
00020
00000
00030
00002
,
00000
00003
00000
00010
00000
00000
00100
00000
00000
00000
00000
00000
00000
00000
00000
00000
00000
00000
00000
00000
00000
20000
00000
00000
,
30000
01000
00100
00001
00020
00000
00030
00002
,
00000
00003
00000
00010
00000
00000
00100
00000
00000
00000
00000
00000
00100
00000
00000
00000
00000
00000
00000
00000
00000
20000
00000
00000
,
30000
01000
00100
00001
00020
00000
00030
00002
,
00000
00003
00000
00010
00000
00000
00100
00000
00000
00000
00000
00000
00000
00000
00000
00000
00000
00000
00000
00000
00000
20000
00000
00000
,
30000
01000
00100
00001
00020
00000
00030
00002
,
00000
00003
00000
00010
00000
00000
00100
00000
00000
00000
00000
00000
00100
00000
00000
00000
00000
00000
00000
00000
00000
20000
00000
00000
,
30000
01000
00100
00001
00020
00000
00030
00002
,
00000
00003
00000
00010
00000
00000
00100
00000
00000
00000
00000
00000
00000
00000
00000
00000
00000
00000
00000
00000
00000
20000
00000
00000
,
30000
01000
00100
00001
00020
00000
00030
00002
,
00000
00003
00000
00010
00000
00000
00100
00000
00000
00000
00000
00000
00100
00000
00000
00000
00000
00000
00000
00000
00000
20000
00000
00000
,
30000
01000
00100
00001
00020
00000
00030
00002
,
00000
00003
00000
00010
00000
00000
00100
00000
00000
00000
00000
00000
00000
00000
00000
00000
00000
00000
00000
00000
00000
20000
00000
00000
,
30000
01000
00100
00001
00020
00000
00030
00002
,
00000
00003
00000
00010
00000
00000
00100
00000
00000
00000
00000
00000
00100
00000
00000
00000
00000
00000
00000
00000
00000
20000
00000
00000
,
30000
01000
00100
00001
00020
00000
00030
00002
,
00000
00003
00000
00010
00000
00000
00100
00000
00000
00000
00000
00000
00000
00000
00000
00000
00000
00000
00000
00000
00000
20000
00000
00000
,
30000
01000
00100
00001
00020
00000
00030
00002
,
00000
00003
00000
00010
00000
00000
00100
00000
00000
00000
00000
00000
00100
00000
00000
00000
00000
00000
00000
00000
00000
20000
00000
00000
,
30000
01000
00100
00001
00020
00000
00030
00002
,
00000
00003
00000
00010
00000
00000
00100
00000
00000
00000
00000
00000
00000
00000
00000
00000
00000
00000
00000
00000
00000
20000
00000
00000
,
30000
01000
00100
00001
00020
00000
00030
00002
,
00000
00003
00000
00010
00000
00000
00100
00000
00000
00000
00000
00000
00100
00000
00000
00000
00000
00000
00000
00000
00000
20000
00000
00000
,
30000
01000
00100
00001
00020
00000
00030
00002
,
00000
00003
00000
00010
00000
00000
00100
00000
00000
00000
00000
00000
00000
00000
00000
00000
00000
00000
00000
00000
00000
20000
00000
00000
,
30000
01000
00100
00001
00020
00000
00030
00002
,
00000
00003
00000
00010
00000
00000
00100
00000
00000
00000
00000
00000
00100
00000
00000
00000
00000
00000
00000
00000
00000
20000
00000
00000
,
30000
01000
00100
00001
00020
00000
00030
00002
,
00000
00003
00000
00010
00000
00000
00100
00000
00000
00000
00000
00000
00000
00000
00000
00000
00000
00000
00000
00000
00000
20000
00000
00000
,
30000
01000
00100
00001
00020
00000
00030
00002
,
00000
00003
00000
00010
00000
00000
00100
00000
00000
00000
00000
00000
00100
00000
00000
00000
00000
00000
00000
00000
00000
00000
00000
00000
;

//---------------pump-single - ----------------
#NOTES:
     pump-single:
     :
     Medium:
     11:
     0.306,0.431,0.004,0.477,0.043,428.000,1.000,123.000,0.000,0.000:
00000
00000
00000
00000
,
00000
00000
00000
00000
,
00000
00000
00000
00000
,
00000
00000
00000
00000
,
00000
00000
00000
00000
,
00000
00000
00000
00000
,
00000
00000
00000
00000
,
00000
00000
00000
00000
,
00000
00000
00000
00000
,
00000
00000
00000
00000
,
00000
00000
00000
00000
,
00000
00000
00000
00000
,
00000
00000
00000
00000
,
00000
00000
00000
00000
,
00000
00000
00000
00000
00000
00000
00000
20000
,
30000
00000
01000
00000
00200
00000
00300
00020
,
00000
00030
00000
00100
00000
00000
01000
00000
00000
00000
00000
00000
01000
00000
00000
00000
00000
00000
00000
00000
00000
20000
00000
00000
,
30000
00000
01000
00000
00200
00000
00300
00020
,
00000
00030
00000
00100
00000
00000
01000
00000
00000
00000
00000
00000
00000
00000
00000
00000
00000
00000
00000
00000
00000
00000
00000
00000
,
00100
00000
00010
00000
00010
01000
00000
01000
,
10000
00000
01000
00000
20000
00000
00000
30000
20000
00000
00000
00000
00000
00000
30000
00000
,
00000
00000
00010
00000
00010
01000
00000
01000
,
10000
00000
01000
00000
10000
00000
00000
20000
00000
00000
00000
00000
00000
00000
30000
00000
,
00000
00100
00100
00000
,
01000
01000
00000
00000
,
00000
00100
00100
00000
,
01000
01000
00000
00000
,
00000
10000
10000
00000
,
01000
01000
00000
00000
,
00000
00100
00100
00000
,
01000
01000
00000
00000
,
00000
00100
00100
00000
,
01000
01000
00000
00000
,
00000
00100
00100
00000
,
01000
01000
00000
00000
,
00000
10000
10000
00000
,
01000
01000
00000
00000
,
00000
00100
00100
00000
,
01000
01000
00000
00000
,
10000
00000
01000
00000
00200
00000
00300
00020
,
00000
00030
00000
00100
00000
00000
01000
00000
00000
00000
00000
00000
01000
00000
00000
00000
00000
00000
00000
00000
00000
20000
00000
00000
,
30000
00000
01000
00000
00200
00000
00300
00020
,
00000
00030
00000
00100
00000
00000
01000
00000
00000
00000
00000
00000
00000
00000
00000
00000
00000
00000
00000
00000
00000
20000
00000
00000
,
30000
00000
01000
00000
00200
00000
00300
00020
,
00000
00030
00000
00100
00000
00000
01000
00000
00000
00000
00000
00000
01000
00000
00000
00000
00000
00000
00000
00000
00000
20000
00000
00000
,
30000
00000
01000
00000
00200
00000
00300
00020
,
00000
00030
00000
00100
00000
00000
01000
00000
00000
00000
00000
00000
00000
00000
00000
00000
00000
00000
00000
00000
00000
20000
00000
00000
,
30000
00000
01000
00000
00200
00000
00300
00020
,
00000
00030
00000
00100
00000
00000
01000
00000
00000
00000
00000
00000
01000
00000
00000
00000
00000
00000
00000
00000
00000
20000
00000
00000
,
30000
00000
01000
00000
00200
00000
00300
00020
,
00000
00030
00000
00100
00000
00000
01000
00000
00000
00000
00000
00000
00000
00000
00000
00000
00000
00000
00000
00000
00000
00000
00000
00000
,
00000
00100
00100
00000
,
01000
01000
00000
00000
,
00000
00100
00100
00000
,
01000
01000
00000
00000
,
00000
10000
10000
00000
,
01000
01000
00000
00000
,
00000
00100
00100
00000
,
01000
01000
00000
00000
,
00000
00100
00100
00000
,
01000
01000
00000
00000
,
00000
00100
00100
00000
,
01000
01000
00000
00000
,
00000
10000
10000
00000
,
01000
01000
00000
00000
,
00000
00100
00100
00000
,
01000
00000
01000
00000
00000
00000
00000
20000
,
30000
00000
01000
00000
00200
00000
00300
00020
,
00000
00030
00000
00100
00000
00000
01000
00000
00000
00000
00000
00000
01000
00000
00000
00000
00000
00000
00000
00000
00000
20000
00000
00000
,
30000
00000
01000
00000
00200
00000
00300
00020
,
00000
00030
00000
00100
00000
00000
01000
00000
00000
00000
00000
00000
00000
00000
00000
00000
00000
00000
00000
00000
00000
20000
00000
00000
,
30000
00000
01000
00000
00200
00000
00300
00020
,
00000
00030
00000
00100
00000
00000
01000
00000
00000
00000
00000
00000
01000
00000
00000
00000
00000
00000
00000
00000
00000
20000
00000
00000
,
30000
00000
01000
00000
00200
00000
00300
00020
,
00000
00030
00000
00100
00000
00000
01000
00000
00000
00000
00000
00000
00000
00000
00000
00000
00000
00000
00000
00000
00000
20000
00000
00000
,
30000
00000
01000
00000
00200
00000
00300
00020
,
00000
00030
00000
00100
00000
00000
01000
00000
00000
00000
00000
00000
01000
00000
00000
00000
00000
00000
00000
00000
00000
20000
00000
00000
,
30000
00000
01000
00000
00200
00000
00300
00020
,
00000
00030
00000
00100
00000
00000
01000
00000
00000
00000
00000
00000
00000
00000
00000
00000
00000
00000
00000
00000
00000
20000
00000
00000
,
30000
00000
01000
00000
00200
00000
00300
00020
,
00000
00030
00000
00100
00000
00000
01000
00000
00000
00000
00000
00000
01000
00000
00000
00000
00000
00000
00000
00000
00000
20000
00000
00000
,
30000
00000
01000
00000
00200
00000
00300
00020
,
00000
00030
00000
00100
00000
00000
01000
00000
00000
00000
00000
00000
00000
00000
00000
00000
00000
00000
00000
00000
00000
00000
00000
00000
,
00000
00100
00100
00000
,
00100
00100
00000
00000
,
00000
00100
00100
00000
,
00100
00100
00000
00000
,
00000
00100
00100
00000
,
00100
00100
00000
00000
,
00000
00100
00100
00000
,
00100
00100
00000
00000
,
00000
00000
00000
00000
00010
00000
00000
00000
00010
00000
00200
00000
00000
00300
00000
00000
,
00010
00000
00010
00200
00000
00300
00000
00000
,
00000
00000
00000
00000
00010
00000
00000
00000
00010
00000
00200
00000
00000
00300
00000
00000
,
00010
00000
00010
00200
00000
00300
00000
00000
,
00000
00000
00000
00000
00010
00000
00000
00000
00010
00000
00200
00000
00000
00300
00000
00000
,
00010
00000
00010
00200
00000
00300
00000
00000
,
00000
00000
00000
00000
00010
00000
00000
00000
00010
00000
00200
00000
00000
00300
00000
00000
,
00010
00000
00000
00000
00000
00000
00010
00000
00000
00100
00000
00000
10000
00000
00000
01000
00000
00000
00200
00000
00000
00000
00000
00300
,
00020
00000
00000
00000
00030
10000
02000
00000
,
00000
03000
10000
00000
01000
00000
00000
00000
00000
00000
01100
00000
00010
00000
00000
00000
,
00010
00000
00000
00000
00000
00000
00000
00000
00000
00000
00000
00000
10000
00000
00000
00000
00000
00000
10000
00000
00000
00000
00000
00000
00100
00000
00000
00000
00000
00000
10000
00000
00000
00000
00000
00000
00000
00100
00000
00000
00000
10000
00000
00000
00000
00100
00000
00000
,
00000
10000
00000
00000
00000
00000
00000
01000
00000
00000
00000
00000
10000
00000
00000
00000
00000
00000
00100
00000
00000
00000
00000
00000
01000
00000
00000
00000
00000
00000
00100
00000
00000
00000
00000
00000
02000
00000
00000
00000
00000
00000
00000
00000
00000
03000
00000
00000
,
00100
00000
00000
00000
00000
00000
00000
00000
00000
00000
00000
00000
10000
00000
00000
00000
00000
00000
00010
00000
00000
00000
00000
00000
00000
00100
00000
00000
00000
00000
00000
00000
00000
00000
00100
00000
00000
00000
00000
00000
01000
00000
00000
00000
00000
00100
00000
00000
,
00000
00000
00000
00000
00000
00000
00000
00000
00000
00000
00000
00000
01000
00000
00000
00000
00000
00000
00000
00000
00000
00000
00000
00000
00000
00000
00000
00000
00100
00000
00000
00000
00000
00000
00000
00000
00000
00000
00000
00000
00000
00000
00000
00000
00000
00000
00000
00000
01000
00000
00000
00000
00000
00000
00000
00000
00000
00000
00000
00000
00000
00000
00000
00000
00000
00000
00000
00000
00000
00000
00000
00000
00200
00000
00000
00000
00000
00000
00000
00000
00000
00000
00000
00000
00000
00000
00000
00000
00000
00000
00300
00000
00000
00000
00000
00000
00000
00000
00000
00000
00000
00000
00000
00000
00000
00000
00000
00000
00000
00000
00000
00000
00000
00000
00000
00000
00000
00000
00000
00000
00010
00000
00000
00000
00000
00000
00000
00000
00000
00000
00000
00000
00000
00000
00000
00000
00000
00000
00000
00000
00000
00000
00000
00000
00100
00000
00000
00000
00000
00000
00000
00000
00000
00000
00000
00000
00000
00000
00000
00000
00000
00000
00000
00000
00000
00000
00000
00000
01000
00000
00000
00000
00000
00000
00000
00000
00000
00000
00000
00000
00000
00000
00000
00000
00000
00000
00000
00000
00000
00000
00000
00000
,
00100
00000
00000
01000
00000
00000
01000
00000
00000
00200
00000
00000
00000
00000
00300
00100
00000
00000
20000
00000
00000
00000
00000
00000
,
00000
00000
00000
30000
00000
00000
01000
00000
00000
00000
00000
00000
00200
00000
00000
00000
00000
00000
00300
00000
01000
00000
00000
00000
00000
01000
00000
00000
00000
00000
00000
20000
00000
00000
00000
00000
00000
00000
00000
00000
00000
00000
00000
00000
00000
00000
00000
00000
,
00000
00000
00000
30000
00000
00000
02000
00000
00000
00000
00000
00000
03000
00000
00000
00000
00000
00000
10000
00000
00000
00000
00000
00000
01000
00000
00000
00000
00000
00000
00000
00000
00000
00000
00000
00000
02000
00000
00000
00000
00000
00000
00000
00000
00000
00000
03000
00000
,
10000
10000
00200
00000
,
00300
00000
10000
00000
00100
00000
00000
00000
00100
00000
00020
00000
00000
00000
00030
00100
,
00000
00000
00000
02000
00000
00000
00000
00000
00000
00000
00000
03000
10000
00000
10000
00000
,
00010
10000
00100
01000
01000
00100
01000
10000
,
00100
00000
00000
00000
00000
00000
00000
00000
00000
00000
00000
00000
00000
00000
00000
00000
00000
00000
00000
00000
00000
00000
00000
00000
00000
00000
00000
00000
00000
00000
00000
00000
00000
00000
00000
00000
00000
00000
00000
00000
00000
00000
00000
00000
00000
00200
00000
00000
00000
00000
00000
00000
00000
00000
00000
00000
00000
00000
00000
00000
00000
00000
00000
00000
00000
00000
00000
00000
00000
00000
00000
00000
00000
00000
00000
00000
00000
00000
00000
00000
00300
00000
00000
00000
00000
00000
00000
00000
10000
00000
00000
00000
00000
00000
00000
00000
00000
00000
00000
00000
00000
00000
00000
00000
00000
00000
00000
00000
00000
00000
00000
00000
00000
00000
00000
00000
00000
00000
00000
00000
00000
00000
00000
00000
01000
00000
00000
00000
00000
00000
00000
00000
00000
00000
00000
00000
00000
00000
00000
00000
00000
00000
00000
00000
00200
00000
00000
00000
00000
00000
00000
00000
00000
00000
00000
00000
00000
00000
00000
00000
00000
00000
00000
00000
00000
00000
00000
00000
00000
00000
00000
00000
00000
00000
00000
00000
00000
00000
00000
00000
00000
00000
00000
00000
00000
00000
00000
00000
00000
00000
00000
00000
,
00000
00000
00000
00000
00000
00000
00000
00300
10000
00000
00000
00000
10000
00000
00000
00000
00000
00000
10000
00000
00000
00000
10000
00000
00000
00000
00000
00000
01000
00000
00000
00000
,
01000
01000
00100
00100
00100
00010
00010
00010
,
00010
00010
00010
00010
00010
00020
00000
00000
,
00000
00000
00030
00010
00000
00000
20000
00000
00000
00000
00000
00000
00000
00000
00000
00000
00000
00000
30000
00000
00000
20000
00000
00000
,
30000
00000
01000
00000
00200
00000
00300
00020
,
00000
00030
00000
00100
00000
00000
01000
00000
00000
00000
00000
00000
00000
00000
00000
00000
00000
00000
00000
00000
00000
20000
00000
00000
,
30000
00000
01000
00000
00200
00000
00300
00020
,
00000
00030
00000
00100
00000
00000
01000
00000
00000
00000
00000
00000
01000
00000
00000
00000
00000
00000
00000
00000
00000
20000
00000
00000
,
30000
00000
01000
00000
00200
00000
00300
00020
,
00000
00030
00000
00100
00000
00000
01000
00000
00000
00000
00000
00000
00000
00000
00000
00000
00000
00000
00000
00000
00000
20000
00000
00000
,
30000
00000
01000
00000
00200
00000
00300
00020
,
00000
00030
00000
00100
00000
00000
01000
00000
00000
00000
00000
00000
01000
00000
00000
00000
00000
00000
00000
00000
00000
20000
00000
00000
,
30000
00000
01000
00000
00200
00000
00300
00020
,
00000
00030
00000
00100
00000
00000
01000
00000
00000
00000
00000
00000
00000
00000
00000
00000
00000
00000
00000
00000
00000
20000
00000
00000
,
30000
00000
01000
00000
00200
00000
00300
00020
,
00000
00030
00000
00100
00000
00000
01000
00000
00000
00000
00000
00000
01000
00000
00000
00000
00000
00000
00000
00000
00000
20000
00000
00000
,
30000
00000
01000
00000
00200
00000
00300
00020
,
00000
00030
00000
00100
00000
00000
01000
00000
00000
00000
00000
00000
00000
00000
00000
00000
00000
00000
00000
00000
00000
20000
00000
00000
,
30000
00000
01000
00000
00200
00000
00300
00020
,
00000
00030
00000
00100
00000
00000
01000
00000
00000
00000
00000
00000
01000
00000
00000
00000
00000
00000
00000
00000
00000
20000
00000
00000
,
30000
00000
01000
00000
00200
00000
00300
00020
,
00000
00030
00000
00100
00000
00000
01000
00000
00000
00000
00000
00000
00000
00000
00000
00000
00000
00000
00000
00000
00000
20000
00000
00000
,
30000
00000
01000
00000
00200
00000
00300
00020
,
00000
00030
00000
00100
00000
00000
01000
00000
00000
00000
00000
00000
01000
00000
00000
00000
00000
00000
00000
00000
00000
20000
00000
00000
,
30000
00000
01000
00000
00200
00000
00300
00020
,
00000
00030
00000
00100
00000
00000
01000
00000
00000
00000
00000
00000
00000
00000
00000
00000
00000
00000
00000
00000
00000
20000
00000
00000
,
30000
00000
01000
00000
00200
00000
00300
00020
,
00000
00030
00000
00100
00000
00000
01000
00000
00000
00000
00000
00000
01000
00000
00000
00000
00000
00000
00000
00000
00000
20000
00000
00000
,
30000
00000
01000
00000
00200
00000
00300
00020
,
00000
00030
00000
00100
00000
00000
01000
00000
00000
00000
00000
00000
00000
00000
00000
00000
00000
00000
00000
00000
00000
20000
00000
00000
,
30000
00000
01000
00000
00200
00000
00300
00020
,
00000
00030
00000
00100
00000
00000
01000
00000
00000
00000
00000
00000
01000
00000
00000
00000
00000
00000
00000
00000
00000
20000
00000
00000
,
30000
00000
01000
00000
00200
00000
00300
00020
,
00000
00030
00000
00100
00000
00000
01000
00000
00000
00000
00000
00000
00000
00000
00000
00000
00000
00000
00000
00000
00000
20000
00000
00000
,
30000
00000
01000
00000
00200
00000
00300
00020
,
00000
00030
00000
00100
00000
00000
01000
00000
00000
00000
00000
00000
01000
00000
00000
00000
00000
00000
00000
00000
00000
00000
00000
00000
;

//---------------pump-single - ----------------
#NOTES:
     pump-single:
     :
     Easy:
     10:
     0.259,0.345,0.000,0.480,0.021,344.000,0.000,124.000,0.000,0.000:
00000
00000
00000
00000
,
00000
00000
00000
00000
,
00000
00000
00000
00000
,
00000
00000
00000
00000
,
00000
00000
00000
00000
,
00000
00000
00000
00000
,
00000
00000
00000
00000
,
00000
00000
00000
00000
,
00000
00000
00000
00000
,
00000
00000
00000
00000
,
00000
00000
00000
00000
,
00000
00000
00000
00000
,
00000
00000
00000
00000
,
00000
00000
00000
00000
,
00000
00000
00000
00000
00000
00000
00000
20000
,
30000
00000
10000
00000
02000
00000
03000
00200
,
00000
00300
00000
00000
00000
00000
01000
00000
00000
00000
00000
00000
01000
00000
00000
00000
00000
00000
00000
00000
00000
20000
00000
00000
,
30000
00000
10000
00000
02000
00000
03000
00200
,
00000
00300
00000
00000
00000
00000
01000
00000
00000
00000
00000
00000
00000
00000
00000
00000
00000
00000
00000
00000
00000
00000
00000
00000
,
00000
00100
00100
00000
,
10000
00000
00000
00000
00000
00000
20000
00000
00000
00000
30000
00000
20000
00000
00000
00000
00000
00000
00000
00000
00000
30000
00000
00000
,
00000
00100
00100
00000
,
10000
00000
00000
00000
10000
00000
00000
20000
00000
00000
00000
00000
00000
00000
30000
00000
,
00000
00100
00100
00000
,
01000
01000
00000
00000
,
00000
00100
00100
00000
,
01000
01000
00000
00000
,
00000
10000
10000
00000
,
01000
01000
00000
00000
,
00000
00100
00100
00000
,
01000
01000
00000
00000
,
00000
00100
00100
00000
,
01000
01000
00000
00000
,
00000
00100
00100
00000
,
01000
01000
00000
00000
,
00000
10000
10000
00000
,
01000
01000
00000
00000
,
00000
00100
00100
00000
,
01000
01000
00000
00000
,
10000
00000
10000
00000
02000
00000
03000
00200
,
00000
00300
00000
00000
00000
00000
01000
00000
00000
00000
00000
00000
01000
00000
00000
00000
00000
00000
00000
00000
00000
20000
00000
00000
,
30000
00000
10000
00000
02000
00000
03000
00200
,
00000
00300
00000
00000
00000
00000
01000
00000
00000
00000
00000
00000
00000
00000
00000
00000
00000
00000
00000
00000
00000
20000
00000
00000
,
30000
00000
10000
00000
02000
00000
03000
00200
,
00000
00300
00000
00000
00000
00000
01000
00000
00000
00000
00000
00000
01000
00000
00000
00000
00000
00000
00000
00000
00000
20000
00000
00000
,
30000
00000
10000
00000
02000
00000
03000
00200
,
00000
00300
00000
00000
00000
00000
01000
00000
00000
00000
00000
00000
00000
00000
00000
00000
00000
00000
00000
00000
00000
20000
00000
00000
,
30000
00000
10000
00000
02000
00000
03000
00200
,
00000
00300
00000
00000
00000
00000
01000
00000
00000
00000
00000
00000
01000
00000
00000
00000
00000
00000
00000
00000
00000
20000
00000
00000
,
30000
00000
10000
00000
02000
00000
03000
00200
,
00000
00300
00000
00000
00000
00000
01000
00000
00000
00000
00000
00000
00000
00000
00000
00000
00000
00000
00000
00000
00000
00000
00000
00000
,
00000
00100
00100
00000
,
01000
01000
00000
00000
,
00000
00100
00100
00000
,
01000
01000
00000
00000
,
00000
10000
10000
00000
,
01000
01000
00000
00000
,
00000
00100
00100
00000
,
01000
01000
00000
00000
,
00000
00100
00100
00000
,
01000
01000
00000
00000
,
00000
00100
00100
00000
,
01000
01000
00000
00000
,
00000
10000
10000
00000
,
01000
01000
00000
00000
,
00000
00100
00100
00000
,
01000
00000
01000
00000
00000
00000
00000
20000
,
30000
00000
10000
00000
02000
00000
03000
00200
,
00000
00300
00000
00000
00000
00000
01000
00000
00000
00000
00000
00000
01000
00000
00000
00000
00000
00000
00000
00000
00000
20000
00000
00000
,
30000
00000
10000
00000
02000
00000
03000
00200
,
00000
00300
00000
00000
00000
00000
01000
00000
00000
00000
00000
00000
00000
00000
00000
00000
00000
00000
00000
00000
00000
20000
00000
00000
,
30000
00000
10000
00000
02000
00000
03000
00200
,
00000
00300
00000
00000
00000
00000
01000
00000
00000
00000
00000
00000
01000
00000
00000
00000
00000
00000
00000
00000
00000
20000
00000
00000
,
30000
00000
10000
00000
02000
00000
03000
00200
,
00000
00300
00000
00000
00000
00000
01000
00000
00000
00000
00000
00000
00000
00000
00000
00000
00000
00000
00000
00000
00000
20000
00000
00000
,
30000
00000
10000
00000
02000
00000
03000
00200
,
00000
00300
00000
00000
00000
00000
01000
00000
00000
00000
00000
00000
01000
00000
00000
00000
00000
00000
00000
00000
00000
20000
00000
00000
,
30000
00000
10000
00000
02000
00000
03000
00200
,
00000
00300
00000
00000
00000
00000
01000
00000
00000
00000
00000
00000
00000
00000
00000
00000
00000
00000
00000
00000
00000
20000
00000
00000
,
30000
00000
10000
00000
02000
00000
03000
00200
,
00000
00300
00000
00000
00000
00000
01000
00000
00000
00000
00000
00000
01000
00000
00000
00000
00000
00000
00000
00000
00000
20000
00000
00000
,
30000
00000
10000
00000
02000
00000
03000
00200
,
00000
00300
00000
00000
00000
00000
01000
00000
00000
00000
00000
00000
00000
00000
00000
00000
00000
00000
00000
00000
00000
00000
00000
00000
,
00000
01000
01000
00000
,
01000
01000
00000
00000
,
00000
01000
01000
00000
,
01000
01000
00000
00000
,
00000
01000
01000
00000
,
01000
01000
00000
00000
,
00000
01000
01000
00000
,
01000
01000
00000
00000
,
00000
00100
00200
00300
,
00100
00200
00300
00000
,
00000
00100
00200
00300
,
00100
00200
00300
00000
,
00000
00100
00200
00300
,
00100
00200
00300
00000
,
00000
00100
00200
00300
,
00100
00100
10000
20000
,
00000
00000
30000
02000
,
00000
03000
02000
00000
03000
01000
00200
00000
,
00300
00000
00000
00000
00000
00000
00000
00000
00000
00000
00000
00000
10000
00000
00000
00000
00000
00000
00000
00000
00000
00000
00000
00000
01000
00000
00000
00000
00000
00000
00000
00000
00000
00000
00000
00000
00000
01000
00000
00000
00000
00000
00000
00000
00000
01000
00000
00000
,
00000
00000
00000
00000
00000
00000
00000
10000
00000
00000
00000
00000
00000
00000
00000
00000
00000
00000
01000
00000
00000
00000
00000
00000
10000
00000
00000
00000
00000
00000
00000
00000
00000
00000
00000
00000
20000
00000
00000
00000
00000
00000
00000
00000
00000
30000
00000
00000
,
00000
10000
01000
01000
,
01000
00000
01000
20000
30000
00000
10000
00000
,
10000
00000
00000
00000
00000
00000
10000
00000
00000
02000
00000
00000
00000
00000
03000
01000
00000
00000
20000
00000
00000
00000
00000
00000
,
00000
00000
00000
30000
00000
00000
01000
00000
00000
00000
00000
00000
00200
00000
00000
00000
00000
00000
00300
00000
01000
00000
00000
00000
00000
00000
00000
00000
00000
00000
00000
20000
00000
00000
00000
00000
00000
00000
00000
00000
00000
00000
00000
00000
00000
00000
00000
00000
,
00000
00000
00000
30000
00000
00000
02000
00000
00000
00000
00000
00000
03000
00000
00000
00000
00000
00000
00000
00000
00000
00000
00000
00000
10000
00000
00000
00000
00000
00000
00000
00000
00000
00000
00000
00000
20000
00000
00000
00000
00000
00000
00000
00000
00000
00000
30000
00000
,
10000
10000
00200
00000
,
00300
00000
00000
00000
01000
00000
00000
00000
01000
00000
00200
00000
00000
00000
00300
01000
,
00000
00000
00000
02000
00000
00000
00000
00000
00000
00000
00000
03000
10000
00000
00000
00000
,
00100
01000
10000
01000
,
00100
00000
00000
00000
00000
00000
00000
00000
00000
00000
00000
00000
00000
00000
00000
00000
00000
00000
00000
00000
00000
00000
00000
00000
00000
00000
00000
00000
00000
00000
00000
00000
00000
00000
00000
00000
00000
00000
00000
00000
00000
00000
00000
00000
00000
00200
00000
00000
00000
00000
00000
00000
00000
00000
00000
00000
00000
00000
00000
00000
00000
00000
00000
00000
00000
00000
00000
00000
00000
00000
00000
00000
00000
00000
00000
00000
00000
00000
00000
00000
00300
00000
00000
00000
00000
00000
00000
00000
10000
00000
00000
00000
00000
00000
00000
00000
00000
00000
00000
00000
00000
00000
00000
00000
00000
00000
00000
00000
00000
00000
00000
00000
00000
00000
00000
00000
00000
00000
00000
00000
00000
00000
00000
00000
00000
00000
00000
00000
00000
00000
00000
00000
00000
00000
00000
00000
00000
00000
00000
00000
00000
00000
00000
00000
00200
00000
00000
00000
00000
00000
00000
00000
00000
00000
00000
00000
00000
00000
00000
00000
00000
00000
00000
00000
00000
00000
00000
00000
00000
00000
00000
00000
00000
00000
00000
00000
00000
00000
00000
00000
00000
00000
00000
00000
00000
00000
00000
00000
00000
00000
00000
00000
,
00000
00000
00000
00000
00000
00000
00000
00300
10000
00000
00000
00000
00000
00000
00000
00000
00000
00000
10000
00000
00000
00000
00000
00000
00000
00000
00000
00000
01000
00000
00000
00000
,
01000
01000
01000
00100
,
00100
00100
00200
00000
,
00000
00300
00100
00000
20000
00000
00000
00000
00000
00000
00000
00000
30000
00000
20000
00000
,
30000
00000
10000
00000
02000
00000
03000
00200
,
00000
00300
00000
00000
00000
00000
01000
00000
00000
00000
00000
00000
00000
00000
00000
00000
00000
00000
00000
00000
00000
20000
00000
00000
,
30000
00000
10000
00000
02000
00000
03000
00200
,
00000
00300
00000
00000
00000
00000
01000
00000
00000
00000
00000
00000
01000
00000
00000
00000
00000
00000
00000
00000
00000
20000
00000
00000
,
30000
00000
10000
00000
02000
00000
03000
00200
,
00000
00300
00000
00000
00000
00000
01000
00000
00000
00000
00000
00000
00000
00000
00000
00000
00000
00000
00000
00000
00000
20000
00000
00000
,
30000
00000
10000
00000
02000
00000
03000
00200
,
00000
00300
00000
00000
00000
00000
01000
00000
00000
00000
00000
00000
01000
00000
00000
00000
00000
00000
00000
00000
00000
20000
00000
00000
,
30000
00000
10000
00000
02000
00000
03000
00200
,
00000
00300
00000
00000
00000
00000
01000
00000
00000
00000
00000
00000
00000
00000
00000
00000
00000
00000
00000
00000
00000
20000
00000
00000
,
30000
00000
10000
00000
02000
00000
03000
00200
,
00000
00300
00000
00000
00000
00000
01000
00000
00000
00000
00000
00000
01000
00000
00000
00000
00000
00000
00000
00000
00000
20000
00000
00000
,
30000
00000
10000
00000
02000
00000
03000
00200
,
00000
00300
00000
00000
00000
00000
01000
00000
00000
00000
00000
00000
00000
00000
00000
00000
00000
00000
00000
00000
00000
20000
00000
00000
,
30000
00000
10000
00000
02000
00000
03000
00200
,
00000
00300
00000
00000
00000
00000
01000
00000
00000
00000
00000
00000
01000
00000
00000
00000
00000
00000
00000
00000
00000
20000
00000
00000
,
30000
00000
10000
00000
02000
00000
03000
00200
,
00000
00300
00000
00000
00000
00000
01000
00000
00000
00000
00000
00000
00000
00000
00000
00000
00000
00000
00000
00000
00000
20000
00000
00000
,
30000
00000
10000
00000
02000
00000
03000
00200
,
00000
00300
00000
00000
00000
00000
01000
00000
00000
00000
00000
00000
01000
00000
00000
00000
00000
00000
00000
00000
00000
20000
00000
00000
,
30000
00000
10000
00000
02000
00000
03000
00200
,
00000
00300
00000
00000
00000
00000
01000
00000
00000
00000
00000
00000
00000
00000
00000
00000
00000
00000
00000
00000
00000
20000
00000
00000
,
30000
00000
10000
00000
02000
00000
03000
00200
,
00000
00300
00000
00000
00000
00000
01000
00000
00000
00000
00000
00000
01000
00000
00000
00000
00000
00000
00000
00000
00000
20000
00000
00000
,
30000
00000
10000
00000
02000
00000
03000
00200
,
00000
00300
00000
00000
00000
00000
01000
00000
00000
00000
00000
00000
00000
00000
00000
00000
00000
00000
00000
00000
00000
20000
00000
00000
,
30000
00000
10000
00000
02000
00000
03000
00200
,
00000
00300
00000
00000
00000
00000
01000
00000
00000
00000
00000
00000
01000
00000
00000
00000
00000
00000
00000
00000
00000
20000
00000
00000
,
30000
00000
10000
00000
02000
00000
03000
00200
,
00000
00300
00000
00000
00000
00000
01000
00000
00000
00000
00000
00000
00000
00000
00000
00000
00000
00000
00000
00000
00000
20000
00000
00000
,
30000
00000
10000
00000
02000
00000
03000
00200
,
00000
00300
00000
00000
00000
00000
01000
00000
00000
00000
00000
00000
01000
00000
00000
00000
00000
00000
00000
00000
00000
00000
00000
00000
;
